rangoon 720p web-HD by sam mp4

rangoon 720p web-HD by sam mp4 Torrent
Size: 1.3 GB
Language: Hindi
Uploader: HEVCmovies

Download rangoon 720p web-HD by sam mp4 Torrent Video for PC orther device with torrent client(Tablet,Smartphone all devices supported).
rangoon 720p web-HD by sam mp4 Torrent For Torrent download Link. Please scroll to the end of description.


MOVIE TRAILER



screens



Video
ID "]http://t2.gstatic.com/images?q=tbn:ANd9GcTnZN_KkzpFdksvQaUwFLUWuzyJc0J7BGdo-biEpBnT8DKQ-NJX[/img] : 1
Format : AVC
Format/Info : Advanced Video Codec
Format profile : [email protected]
Format settings, CABAC : Yes
Format settings, ReFrames : 4 frames
Codec ID : avc1
Codec ID/Info : Advanced Video Coding
Duration : 2h 32mn
Bit rate : 1 100 Kbps
Width : 1 280 pixels
Height : 528 pixels
Display aspect ratio : 2.40:1
Frame rate mode : Variable
Frame rate : 23.976 fps
Minimum frame rate : 23.974 fps
Maximum frame rate : 23.981 fps
Color space : YUV
Chroma subsampling : 4:2:0
Bit depth : 8 bits
Scan type : Progressive
Bits/(Pixel*Frame) : 0.068
Stream size : 1.18 GiB (92%)
Writing library : x264 core 148 r2708 86b7198

Audio
ID : 2
Format : AAC
Format/Info : Advanced Audio Codec
Format profile : LC
Codec ID : 40
Duration : 2h 32mn
Bit rate mode : Variable
Bit rate : 96.0 Kbps
Channel(s) : 2 channels
Channel positions : Front: L R
Sampling rate : 44.1 KHz
Compression mode : Lossy
Delay relative to video : 83ms
Stream size : 105 MiB (8%)

rangoon 720p web-HD by sam mp4 Torrent




Hey Friend! Like us!

Hey mate! You just got Movie for FREE!
Give us a LIKE! We need support!