MasterChef S13E22 (720p)

MasterChef S13E22 (720p) Torrent
Size: 998.5 MB
Language: English
Uploader: ElsonRoa

Download MasterChef S13E22 (720p) Torrent Video for PC orther device with torrent client(Tablet,Smartphone all devices supported).
MasterChef S13E22 (720p) Torrent For Torrent download Link. Please scroll to the end of description.


MOVIE TRAILER

MasterChef S13E22 (720p)

Regular downloaders of this series, please note - I won’t be able to post the next episode (S13E23) until about 24 hours after broadcast since I am traveling. I should be able to post E24 and E25 shortly after broadcast though these too might take just a couple of hours after broadcast. Apologies for the delay.



It is the final week of MasterChef 2017, and the remaining five amateur cooks travel to Winfield House, the official residence of the American ambassador to the United Kingdom. They have the immense task of cooking for him and his five guests, who include author and journalist Rachel Johnson, Wikipedia founder Jimmy Wales and Jeremy King, creator of iconic restaurants The Ivy and The Wolseley. The dinner is overseen by Paul Ainsworth. He has designed a five-course menu for the guests with an American theme, and with just four hours to replicate his complex dishes, the amateurs are challenged like never before.

Back at the MasterChef kitchen, the finalists are then challenged to demonstrate everything they've learnt and create a dish inspired by something personal in their lives that shows imagination, flair and creativity.

Who can make it through to the final four and keep their dream alive of winning MasterChef 2017?

(with soft subtitles)

First broadcast: 8 May 2017
Duration: 1 hour

Media info:-
General
Format : MPEG-4
Format profile : Base Media
Codec ID : isom (isom/iso2/avc1/mp41)
File size : 998 MiB
Duration : 58mn 6s
Overall bit rate mode : Variable
Overall bit rate : 2 400 Kbps
Writing application : Lavf57.71.100

Video
ID : 1
Format : AVC
Format/Info : Advanced Video Codec
Format profile :
[email protected]
Format settings, CABAC : Yes
Format settings, ReFrames : 2 frames
Codec ID : avc1
Codec ID/Info : Advanced Video Coding
Duration : 58mn 6s
Bit rate mode : Variable
Bit rate : 2 302 Kbps
Maximum bit rate : 3 500 Kbps
Width : 1 280 pixels
Height : 720 pixels
Display aspect ratio : 16:9
Frame rate mode : Variable
Frame rate : 24.955 fps
Minimum frame rate : 0.159 fps
Maximum frame rate : 25.000 fps
Original frame rate : 25.000 fps
Color space : YUV
Chroma subsampling : 4:2:0
Bit depth : 8 bits
Scan type : Progressive
Bits/(Pixel*Frame) : 0.100
Stream size : 957 MiB (96%)

Audio
ID : 2
Format : AAC
Format/Info : Advanced Audio Codec
Format profile : LC
Codec ID : 40
Duration : 58mn 6s
Bit rate mode : Variable
Bit rate : 93.5 Kbps
Maximum bit rate : 94.9 Kbps
Channel(s) : 2 channels
Channel positions : Front: L R
Sampling rate : 48.0 KHz
Frame rate : 46.875 fps (1024 spf)
Compression mode : Lossy
Stream size : 38.8 MiB (4%)

MasterChef S13E22 (720p) Torrent




Hey Friend! Like us!

Hey mate! You just got Movie for FREE!
Give us a LIKE! We need support!