cofee with D 720p hindi by sam mp4

cofee with D 720p hindi by sam mp4 Torrent
Size: 1.4 GB
Language: Hindi
Uploader: HEVCmovies

Download cofee with D 720p hindi by sam mp4 Torrent Video for PC orther device with torrent client(Tablet,Smartphone all devices supported).
cofee with D 720p hindi by sam mp4 Torrent For Torrent download Link. Please scroll to the end of description.


MOVIE TRAILER







click here for sample





screenshoots




media info

Video
ID                                       : 1
Format                                   : AVC
Format/Info                              : Advanced Video Codec
Format profile                           : [email protected]
Format settings, CABAC                   : Yes
Format settings, ReFrames                : 4 frames
Codec ID                                 : avc1
Codec ID/Info                            : Advanced Video Coding
Duration                                 : 2 h 0 min
Bit rate                                 : 1 500 kb/s
Width                                    : 1 080 pixels
Height                                   : 464 pixels
Display aspect ratio                     : 2.35:1
Frame rate mode                          : Variable
Frame rate                               : 23.976 FPS
Minimum frame rate                       : 9.836 FPS
Maximum frame rate                       : 24.000 FPS
Color space                              : YUV
Chroma subsampling                       : 4:2:0
Bit depth                                : 8 bits
Scan type                                : Progressive
Bits/(Pixel*Frame)                       : 0.125
Stream size                              : 1.27 GiB (94%)
Writing library                          : x264 core 148 r2708

Audio
ID                                       : 2
Format                                   : AAC
Format/Info                              : Advanced Audio Codec
Format profile                           : LC
Codec ID                                 : 40
Duration                                 : 2 h 0 min
Bit rate mode                            : Variable
Bit rate                                 : 96.0 kb/s
Channel(s)                               : 2 channels
Channel positions                        : Front: L R
Sampling rate                            : 44.1 kHz
Frame rate                               : 43.066 FPS (1024 spf)
Compression mode                         : Lossy
Stream size                              : 82.9 MiB (6%)
Title                                    : Stereo / Stereo


cofee with D 720p hindi by sam mp4 Torrent




Hey Friend! Like us!

Hey mate! You just got Movie for FREE!
Give us a LIKE! We need support!