BluRay Rip 1080p: Ant-Man (2015)

BluRay Rip 1080p: Ant-Man (2015) Torrent
Size: 25.3 GB
Language: English
Uploader: DoyenJ36

Download BluRay Rip 1080p: Ant-Man (2015) Torrent Video for PC orther device with torrent client(Tablet,Smartphone all devices supported).
BluRay Rip 1080p: Ant-Man (2015) Torrent For Torrent download Link. Please scroll to the end of description.


MOVIE TRAILER


FYI: You may have to convert this MKV to a native format, it works fine with a PLEX Media Server YMMMV.

THIS IS A STRAIGHT BLU-RAY RIP, NO ENCODING CHANGES



IMDB - Ant Man: http://www.imdb.com/title/tt0478970/





Code:


General
Unique ID                                : 105140750810910846278689025325818630521 (0x4F195F3DC3D6799D5D37D4977402D179)
Complete name                            : Ant Man.mkv
Format                                   : Matroska
Format version                           : Version 2
File size                                : 25.3 GiB
Duration                                 : 1 h 57 min
Overall bit rate mode                    : Variable
Overall bit rate                         : 30.9 Mb/s
Movie name                               : MARVEL'S ANT-MAN - BLU-RAY
Encoded date                             : UTC 2017-01-12 18:46:17
Writing application                      : MakeMKV v1.10.4 win(x64-release)
Writing library                          : libmakemkv v1.10.4 (1.3.3/1.4.4) win(x64-release)
Original source medium                   : Blu-ray

Video
ID                                       : 1
ID in the original source medium         : 4113 (0x1011)
Format                                   : AVC
Format/Info                              : Advanced Video Codec
Format profile                           : [email protected]
Format settings, CABAC                   : Yes
Format settings, ReFrames                : 4 frames
Codec ID                                 : V_MPEG4/ISO/AVC
Duration                                 : 1 h 57 min
Bit rate mode                            : Variable
Bit rate                                 : 29.3 Mb/s
Maximum bit rate                         : 33.5 Mb/s
Width                                    : 1 920 pixels
Height                                   : 1 080 pixels
Display aspect ratio                     : 16:9
Frame rate mode                          : Constant
Frame rate                               : 23.976 (24000/1001) FPS
Color space                              : YUV
Chroma subsampling                       : 4:2:0
Bit depth                                : 8 bits
Scan type                                : Progressive
Bits/(Pixel*Frame)                       : 0.589
Stream size                              : 24.0 GiB (95%)
Language                                 : English
Default                                  : No
Forced                                   : No

Audio
ID                                       : 2
ID in the original source medium         : 4352 (0x1100)
Format                                   : DTS
Format/Info                              : Digital Theater Systems
Mode                                     : 16
Format settings, Endianness              : Big
Codec ID                                 : A_DTS
Duration                                 : 1 h 57 min
Bit rate mode                            : Constant
Bit rate                                 : 1 509 kb/s
Channel(s)                               : 6 channels
Channel positions                        : Front: L C R, Side: L R, LFE
Sampling rate                            : 48.0 kHz
Frame rate                               : 93.750 FPS (512 spf)
Bit depth                                : 24 bits
Compression mode                         : Lossy
Stream size                              : 1.23 GiB (5%)
Title                                    : Surround 5.1
Language                                 : English
Default                                  : Yes
Forced                                   : No

Text #1
ID                                       : 3
ID in the original source medium         : 4608 (0x1200)
Format                                   : PGS
Codec ID                                 : S_HDMV/PGS
Codec ID/Info                            : Picture based subtitle format used on BDs/HD-DVDs
Duration                                 : 1 h 56 min
Bit rate                                 : 40.3 kb/s
Count of elements                        : 3432
Stream size                              : 33.6 MiB (0%)
Language                                 : English
Default                                  : No
Forced                                   : No

Text #2
ID                                       : 5
ID in the original source medium         : 4609 (0x1201)
Format                                   : PGS
Codec ID                                 : S_HDMV/PGS
Codec ID/Info                            : Picture based subtitle format used on BDs/HD-DVDs
Duration                                 : 1 h 57 min
Bit rate                                 : 79.4 kb/s
Count of elements                        : 4778
Stream size                              : 66.5 MiB (0%)
Language                                 : English
Default                                  : No
Forced                                   : No

Menu
00:00:00.000                             : en:Chapter 01
00:02:09.087                             : en:Chapter 02
00:08:40.186                             : en:Chapter 03
00:15:24.840                             : en:Chapter 04
00:19:59.740                             : en:Chapter 05
00:27:50.210                             : en:Chapter 06
00:33:07.235                             : en:Chapter 07
00:38:54.206                             : en:Chapter 08
00:44:36.465                             : en:Chapter 09
00:49:22.459                             : en:Chapter 10
00:57:44.252                             : en:Chapter 11
01:00:48.478                             : en:Chapter 12
01:06:31.529                             : en:Chapter 13
01:23:21.287                             : en:Chapter 14
01:34:20.529                             : en:Chapter 15
01:47:34.072                             : en:Chapter 16



BluRay Rip 1080p: Ant-Man (2015) Torrent