BluRay 1080p: Big Hero 6

BluRay 1080p: Big Hero 6 Torrent
Size: 23.5 GB
Language: English
Uploader: DoyenJ36

Download BluRay 1080p: Big Hero 6 Torrent Video for PC orther device with torrent client(Tablet,Smartphone all devices supported).
BluRay 1080p: Big Hero 6 Torrent For Torrent download Link. Please scroll to the end of description.


MOVIE TRAILER


FYI: You may have to convert this MKV to a native format, it works fine with a PLEX Media Server YMMMV.

THIS IS A STRAIGHT BLU-RAY RIP, NO ENCODING CHANGES



IMDB - Big Hero 6: http://www.imdb.com/title/tt2245084/



Code:


General
Unique ID                                : 128554309253488049258645861927623823763 (0x60B6A8CC48C79934C7B00C7E115F9193)
Complete name                            : Big Hero 6.mkv
Format                                   : Matroska
Format version                           : Version 2
File size                                : 23.5 GiB
Duration                                 : 1 h 41 min
Overall bit rate mode                    : Variable
Overall bit rate                         : 33.0 Mb/s
Movie name                               : Big Hero 6
Encoded date                             : UTC 2016-11-29 00:59:47
Writing application                      : MakeMKV v1.10.2 win(x64-release)
Writing library                          : libmakemkv v1.10.2 (1.3.3/1.4.4) win(x64-release)
Original source medium                   : Blu-ray

Video
ID                                       : 1
ID in the original source medium         : 4113 (0x1011)
Format                                   : AVC
Format/Info                              : Advanced Video Codec
Format profile                           : [email protected]
Format settings, CABAC                   : Yes
Format settings, ReFrames                : 4 frames
Format settings, GOP                     : M=1, N=12
Codec ID                                 : V_MPEG4/ISO/AVC
Duration                                 : 1 h 41 min
Bit rate mode                            : Variable
Bit rate                                 : 26.9 Mb/s
Maximum bit rate                         : 31.0 Mb/s
Width                                    : 1 920 pixels
Height                                   : 1 080 pixels
Display aspect ratio                     : 16:9
Frame rate mode                          : Constant
Frame rate                               : 23.976 (24000/1001) FPS
Color space                              : YUV
Chroma subsampling                       : 4:2:0
Bit depth                                : 8 bits
Scan type                                : Progressive
Bits/(Pixel*Frame)                       : 0.541
Stream size                              : 19.1 GiB (81%)
Language                                 : English
Default                                  : No
Forced                                   : No

Audio #1
ID                                       : 2
ID in the original source medium         : 4352 (0x1100)
Format                                   : DTS
Format/Info                              : Digital Theater Systems
Format profile                           : MA / Core
Mode                                     : 16
Format settings, Endianness              : Big
Codec ID                                 : A_DTS
Duration                                 : 1 h 41 min
Bit rate mode                            : Variable / Constant
Bit rate                                 : 4 553 kb/s / 1 509 kb/s
Channel(s)                               : 8 channels / 6 channels
Channel positions                        : Front: L C R, Side: L R, Back: L R, LFE / Front: L C R, Side: L R, LFE
Sampling rate                            : 48.0 kHz
Frame rate                               : 93.750 FPS (512 spf)
Bit depth                                : 24 bits
Compression mode                         : Lossless / Lossy
Stream size                              : 3.24 GiB (14%)
Title                                    : Surround 7.1
Language                                 : English
Default                                  : Yes
Forced                                   : No

Audio #2
ID                                       : 3
ID in the original source medium         : 4352 (0x1100)
Format                                   : DTS
Format/Info                              : Digital Theater Systems
Mode                                     : 16
Format settings, Endianness              : Big
Codec ID                                 : A_DTS
Duration                                 : 1 h 41 min
Bit rate mode                            : Constant
Bit rate                                 : 1 509 kb/s
Channel(s)                               : 6 channels
Channel positions                        : Front: L C R, Side: L R, LFE
Sampling rate                            : 48.0 kHz
Frame rate                               : 93.750 FPS (512 spf)
Bit depth                                : 24 bits
Compression mode                         : Lossy
Stream size                              : 1.07 GiB (5%)
Title                                    : Surround 5.1
Language                                 : English
Default                                  : No
Forced                                   : No

Text #1
ID                                       : 4
ID in the original source medium         : 4608 (0x1200)
Format                                   : PGS
Codec ID                                 : S_HDMV/PGS
Codec ID/Info                            : Picture based subtitle format used on BDs/HD-DVDs
Duration                                 : 1 h 40 min
Bit rate                                 : 39.6 kb/s
Count of elements                        : 3490
Stream size                              : 28.5 MiB (0%)
Language                                 : English
Default                                  : No
Forced                                   : No

Text #2
ID                                       : 6
ID in the original source medium         : 4609 (0x1201)
Format                                   : PGS
Codec ID                                 : S_HDMV/PGS
Codec ID/Info                            : Picture based subtitle format used on BDs/HD-DVDs
Duration                                 : 1 h 39 min
Bit rate                                 : 30.7 kb/s
Count of elements                        : 2650
Stream size                              : 21.9 MiB (0%)
Language                                 : English
Default                                  : No
Forced                                   : No

Menu
00:00:00.000                             : en:Chapter 01
00:07:15.685                             : en:Chapter 02
00:14:37.835                             : en:Chapter 03
00:21:49.182                             : en:Chapter 04
00:24:32.888                             : en:Chapter 05
00:29:34.731                             : en:Chapter 06
00:36:58.090                             : en:Chapter 07
00:44:18.322                             : en:Chapter 08
00:50:49.087                             : en:Chapter 09
00:54:33.019                             : en:Chapter 10
01:00:44.140                             : en:Chapter 11
01:07:12.611                             : en:Chapter 12
01:11:54.643                             : en:Chapter 13
01:16:26.665                             : en:Chapter 14
01:24:44.162                             : en:Chapter 15
01:31:52.757                             : en:Chapter 16


BluRay 1080p: Big Hero 6 Torrent




Hey Friend! Like us!

Hey mate! You just got Movie for FREE!
Give us a LIKE! We need support!